"We have Tested and found Below Host Trustable, Please Buy Premium account From Below Host.
UploadGIG.com
Note: Do not Buy Premium account from Reseller"
Information to the news
  • Views: 0
  • Author: buby2009
  • Date: 1-12-2018, 23:09
1-12-2018, 23:09

Free Download Stayin' Alive: A Grammy Salute To The Music Of The Bee Gees (2017) {CBS}

Category: Music / Music Video

Stayin' Alive: A Grammy Salute To The Music Of The Bee Gees (2017) {CBS}
Stayin' Alive: A Grammy Salute To The Music Of The Bee Gees (2017) {CBS}
Web rip | MP4: AVC (768 x 432, 1152 Kbps) | Audio: AAC (96 Kbps) | 87 min | English | 791 mb
Genre: concert


Stayin' Alive: A Grammy Salute To The Music Of The Bee Gees is a 2017 concert special honoring the music and legacy of The Bee Gees. It features various artists performing cover versions of their favorite Bee Gees songs and ends with Barry Gibb, the only surviving member of the musical siblings. This was broadcast by the CBS Television Network.
General
Complete name : C:\My Documents\AAA Videos\Stayin' Alive, A Grammy Salute To The Music Of The Bee Gees (2017)\Stayin.Alive.A.Grammy.Salute.to.the.Music.of.the.Bee.Gees.2017.WEB.x264.mp4
Format : MPEG-4
Format profile : Base Media
Codec ID : isom
File size : 796 MiB
Duration : 1h 27mn
Overall bit rate mode : Variable
Overall bit rate : 1 270 Kbps
Writing application : Lavf56.40.101

Video
ID : 1
Format : AVC
Format/Info : Advanced Video Codec
Format profile : [email protected]
Format settings, CABAC : Yes
Format settings, ReFrames : 4 frames
Codec ID : avc1
Codec ID/Info : Advanced Video Coding
Duration : 1h 27mn
Bit rate : 1 152 Kbps
Width : 768 pixels
Height : 432 pixels
Display aspect ratio : 16:9
Frame rate mode : Variable
Frame rate : 29.970 fps
Minimum frame rate : 29.412 fps
Maximum frame rate : 30.303 fps
Color space : YUV
Chroma subsampling : 4:2:0
Bit depth : 8 bits
Scan type : Progressive
Bits/(Pixel*Frame) : 0.116
Stream size : 729 MiB (91%)
Writing library : x264 core 148
Encoding settings : cabac=1 / ref=2 / deblock=1:0:0 / analyse=0x1:0x111 / me=hex / subme=6 / psy=1 / psy_rd=1.00:0.00 / mixed_ref=1 / me_range=16 / chroma_me=1 / trellis=1 / 8x8dct=0 / cqm=0 / deadzone=21,11 / fast_pskip=1 / chroma_qp_offset=-2 / threads=13 / lookahead_threads=2 / sliced_threads=0 / nr=0 / decimate=1 / interlaced=0 / bluray_compat=0 / constrained_intra=0 / bframes=3 / b_pyramid=2 / b_adapt=1 / b_bias=0 / direct=1 / weightb=1 / open_gop=0 / weightp=1 / keyint=30 / keyint_min=3 / scenecut=0 / intra_refresh=0 / rc_lookahead=30 / rc=abr / mbtree=1 / bitrate=1152 / ratetol=1.0 / qcomp=0.60 / qpmin=0 / qpmax=69 / qpstep=4 / vbv_maxrate=2304 / vbv_bufsize=2304 / nal_hrd=none / filler=0 / ip_ratio=1.40 / aq=1:1.00

Audio
ID : 2
Format : AAC
Format/Info : Advanced Audio Codec
Format profile : LC
Codec ID : 40
Duration : 1h 27mn
Bit rate mode : Variable
Bit rate : 96.0 Kbps
Maximum bit rate : 97.5 Kbps
Channel(s) : 2 channels
Channel positions : Front: L R
Sampling rate : 44.1 KHz
Compression mode : Lossy
Stream size : 60.6 MiB (8%)
Download link:


Links are Interchangeable - No Password - Single Extraction
UploadGIG.com
Dear visitor, you entered the site as an unregistered user.
We recommend you to register or login to the website using your name.

Tags

News archive

^