"We have Tested and found Below Host Trustable, Please Buy Premium account From Below Host.
UploadGIG.com
Note: Do not Buy Premium account from Reseller"
Information to the news
  • Views: 0
  • Author: buby2009
  • Date: 1-12-2018, 02:57
1-12-2018, 02:57

Free Download Justin Cener - Power Audiences Master Course

Category: Tutorials

Justin Cener - Power Audiences Master Course
Justin Cener - Power Audiences Master Course
WEBRip | English | MP4 + PDF Guides | 1280 x 720 | AVC ~1121 Kbps | 30 fps
AAC | 114 Kbps | 44.1 KHz | 2 channels | 01:32:35 | 1.18 GB
Genre: eLearning Video / Business, Sales, Marketing


The Most Valuable Custom Audiences and Lookalike Audiences With Strategy And Ad Setup For Each! Always know exactly what audiences to build and focus on.
you get...
60+ Power Audiences Strategy - The best audiences to build and use
Audience + Ad Combinations - Personalize your ads with messaging specific to the audience
Copy and Paste Ad Copy - Get my exacy copy and paste ad copy templates

Way More Than Just Retargeting
The Power Audiences you'll build here are way more than just basic retargeting. You'll learn exactly how to build the most powerful audiences each and every time. Retargeting is just one of the 60+ audience strategies we'll cover inside the Power Audiences program.

Increase Your Ads Performance
The key to Power Audiences is matching the right audience with the right ad copy and messaging. This effectively allows you to create super personalized ads that speak directly to your audience! You'll find high clickthrough rates, increased conversation rates, and lower ad costs with Power Audiences.

Video Training & Ad Templates
This seven part video course will teach you my Custom and Lookalike Audience Strategies along with showing you step-by-step how to build the 60+ Power Audiences. You'll also be able to download my exact ad copy templates so you can get started immediately.

also You can find my other last: Business-posts


General
Complete name : 01-PA -Class 3 - Store Audiences from Justin Cener on Vimeo.MP4
Format : MPEG-4
Format profile : Base Media
Codec ID : isom (isom/iso2/avc1/mp41)
File size : 323 MiB
Duration : 36 min 25 s
Overall bit rate mode : Variable
Overall bit rate : 1 239 kb/s
Season : 0
Movie name : 01-PA -Class 3 - Store Audiences from Justin Cener on Vimeo

Xtra : WM/Category

Video
ID : 1
Format : AVC
Format/Info : Advanced Video Codec
Format profile : [email protected]
Format settings : 1 Ref Frames
Format settings, CABAC : No
Format settings, RefFrames : 1 frame
Format settings, GOP : M=1, N=12
Codec ID : avc1
Codec ID/Info : Advanced Video Coding
Duration : 36 min 25 s
Bit rate : 1 121 kb/s
Width : 1 280 pixels
Height : 720 pixels
Display aspect ratio : 16:9
Frame rate mode : Constant
Frame rate : 30.000 FPS
Color space : YUV
Chroma subsampling : 4:2:0
Bit depth : 8 bits
Scan type : Progressive
Bits/(Pixel*Frame) : 0.041
Stream size : 292 MiB (90%)
Encoded date : UTC 2018-11-10 20:06:19
Tagged date : UTC 2018-11-10 20:06:19
Menus : 3

Audio
ID : 2
Format : AAC
Format/Info : Advanced Audio Codec
Format profile : LC
Codec ID : mp4a-40-2
Duration : 36 min 25 s
Bit rate mode : Variable
Bit rate : 114 kb/s
Channel(s) : 2 channels
Channel positions : Front: L R
Sampling rate : 44.1 kHz
Frame rate : 43.066 FPS (1024 SPF)
Compression mode : Lossy
Stream size : 29.6 MiB (9%)
Encoded date : UTC 2018-11-10 20:06:19
Tagged date : UTC 2018-11-10 20:06:19

Menu
ID : 3
Codec ID : text
Duration : 36 min 25 s
Encoded date : UTC 2018-11-15 20:15:16
Tagged date : UTC 2018-11-15 20:15:16
Menu For : 1
00:00:00.000 : Chapter 1

Justin Cener - Power Audiences Master Course

Download link:

Download From Rapidgator.net
https://rapidgator.net/file/bf4e432ac002498f9c3d23cb3a2092d0/txtvy.Justin.Cener..Power.Audiences.Master.Course.part1.rar.html
https://rapidgator.net/file/16d6bea2f47df28019590c48b857e314/txtvy.Justin.Cener..Power.Audiences.Master.Course.part2.rar.html
https://rapidgator.net/file/fd496ee55d278f785a67cc8a87da2ae9/txtvy.Justin.Cener..Power.Audiences.Master.Course.part3.rar.html
https://rapidgator.net/file/d8b4fa40228d0bf2b52c1a0c0e7e0a83/txtvy.Justin.Cener..Power.Audiences.Master.Course.part4.rar.html
https://rapidgator.net/file/10f00f811a21f0326172db8627b917c8/txtvy.Justin.Cener..Power.Audiences.Master.Course.part5.rar.html
https://rapidgator.net/file/f1510edbc5fa32afee12c0179ccdd99f/txtvy.Justin.Cener..Power.Audiences.Master.Course.part6.rar.html
https://rapidgator.net/file/cf30e03b2d91934ca4d62c9a6a72d273/txtvy.Justin.Cener..Power.Audiences.Master.Course.part7.rar.html

Download From Nitroflare.com
http://nitroflare.com/view/35531339F92ECFF/txtvy.Justin.Cener..Power.Audiences.Master.Course.part1.rar
http://nitroflare.com/view/36FFE1DD8FD3AB8/txtvy.Justin.Cener..Power.Audiences.Master.Course.part2.rar
http://nitroflare.com/view/B907FAE08B1C391/txtvy.Justin.Cener..Power.Audiences.Master.Course.part3.rar
http://nitroflare.com/view/7BAD2EB5548514F/txtvy.Justin.Cener..Power.Audiences.Master.Course.part4.rar
http://nitroflare.com/view/EF78693BE1A2CE6/txtvy.Justin.Cener..Power.Audiences.Master.Course.part5.rar
http://nitroflare.com/view/9C84715AF7785B7/txtvy.Justin.Cener..Power.Audiences.Master.Course.part6.rar
http://nitroflare.com/view/70A497FE934FFEC/txtvy.Justin.Cener..Power.Audiences.Master.Course.part7.rar

Links are Interchangeable - No Password - Single Extraction
UploadGIG.com
Dear visitor, you entered the site as an unregistered user.
We recommend you to register or login to the website using your name.

Tags

News archive

^